<?xml version="1.0" standalone="no"?>
<!DOCTYPE svg PUBLIC "-//W3C//DTD SVG 1.1//EN" "http://www.w3.org/Graphics/SVG/1.1/DTD/svg11.dtd" >
<svg xmlns="http://www.w3.org/2000/svg">
<metadata>Generated by IcoMoon</metadata>
<defs>
<font id="icomoon" horiz-adv-x="1024">
<font-face units-per-em="1024" ascent="960" descent="-64" />
<missing-glyph horiz-adv-x="1024" />
<glyph unicode="&#x20;" horiz-adv-x="512" d="" />
<glyph unicode="&#xe900;" glyph-name="uni21" horiz-adv-x="364" d="M292.812 247.296v-128q0-15.36-11.264-25.6t-25.6-11.264h-146.432q-14.336 0-25.6 11.264t-11.264 25.6v128q0 14.336 11.264 25.6t25.6 10.24h146.432q15.36 0 25.6-10.24t11.264-25.6zM309.196 850.432l-15.36-439.296q-1.024-14.336-12.288-25.6t-25.6-10.24h-146.432q-14.336 0-25.6 10.24t-12.288 25.6l-15.36 439.296q-1.024 14.336 9.216 25.6t25.6 11.264h183.296q14.336 0 25.6-11.264t9.216-25.6z" />
<glyph unicode="&#xe901;" glyph-name="uni23" d="M658.286 9.143h73.143v-73.143h-438.857v73.143h73.143v512h-73.143v73.143h365.714v-585.143zM658.286 813.714c0-80.791-65.494-146.286-146.286-146.286s-146.286 65.494-146.286 146.286c0 80.791 65.494 146.286 146.286 146.286s146.286-65.494 146.286-146.286z" />
<glyph unicode="&#xe902;" glyph-name="uni24" horiz-adv-x="960" d="M0 444.928q0 26.624 18.432 44.032t44.032 17.408h657.408l-247.808 249.856q-19.456 18.432-19.456 45.056t19.456 43.008q17.408 19.456 43.008 19.456t45.056-19.456l399.36-399.36-399.36-400.384q-20.48-18.432-45.056-18.432t-43.008 18.432-19.456 45.056 19.456 44.032l247.808 247.808h-657.408q-25.6 0-44.032 18.432t-18.432 45.056z" />
<glyph unicode="&#xe903;" glyph-name="uni2B" d="M0.806 90.336c-0.244 2.532-0.452 5.070-0.584 7.63 0.13-2.56 0.34-5.098 0.584-7.63zM235.908 394.852c92.010-2.738 153.734 92.698 137.862 213.198-15.894 120.48-103.396 217.168-195.408 219.922-92.026 2.73-153.74-89.482-137.852-210 15.882-120.468 103.352-220.374 195.398-223.12zM1024 704v85.31c0 93.88-76.782 170.69-170.658 170.69h-682.656c-92.276 0-168.012-74.232-170.564-165.926 58.362 51.386 139.324 94.316 222.874 94.316 89.304 0 357.244 0 357.244 0l-79.948-67.618h-113.268c75.13-28.804 115.156-116.124 115.156-205.722 0-75.248-41.81-139.954-100.888-185.968-57.644-44.902-68.572-63.708-68.572-101.878 0-32.578 61.746-88 94.032-110.788 94.382-66.538 124.916-128.312 124.916-231.456 0-16.428-2.042-32.83-6.066-48.96h307.742c93.874 0 170.656 76.75 170.656 170.69v533.308h-192v-191.998h-64v192h-191.998v64h191.998v192h64v-192h192zM185.886 194.064c21.614 0 41.422 0.59 61.936 0.59-27.146 26.334-48.626 58.6-48.626 98.38 0 23.608 7.564 46.336 18.134 66.52-10.782-0.77-21.79-0.994-33.126-0.994-74.356 0-137.506 24.076-184.204 63.854v-67.242l0.006-201.73c53.44 25.374 116.888 40.622 185.88 40.622zM3.42 72.742c-1.112 5.458-1.966 11.006-2.542 16.634 0.574-5.628 1.43-11.176 2.542-16.634zM455.45 7.154c-15.058 58.806-68.454 87.964-142.888 139.568-27.072 8.732-56.894 13.874-88.894 14.208-89.618 0.964-173.108-34.942-220.216-88.372 15.92-77.706 85.034-136.558 167.234-136.558h286.444c1.816 11.128 2.696 22.632 2.696 34.432 0 12.534-1.534 24.792-4.376 36.722z" />
<glyph unicode="&#xe904;" glyph-name="uni2C" horiz-adv-x="584" d="M584.5 557.568q0-14.336-10.24-25.6l-256-256q-11.264-11.264-25.6-11.264t-25.6 11.264l-256 256q-11.264 11.264-11.264 25.6t11.264 25.6 25.6 11.264h512q14.336 0 25.6-11.264t10.24-25.6z" />
<glyph unicode="&#xe905;" glyph-name="uni2E" horiz-adv-x="364" d="M365.516 704v-512q0-14.336-10.24-25.6t-26.624-11.264-25.6 11.264l-256 256q-10.24 11.264-10.24 25.6t10.24 25.6l256 256q11.264 11.264 25.6 11.264t26.624-11.264 10.24-25.6z" />
<glyph unicode="&#xe906;" glyph-name="uni30" d="M1024 448c0-282.77-229.23-512-512-512s-512 229.23-512 512c0 282.77 229.23 512 512 512s512-229.23 512-512z" />
<glyph unicode="&#xe907;" glyph-name="uni31" horiz-adv-x="1025" d="M997.696 896.928c-18.432 17.76-39.936 26.624-64.512 26.624h-841.728c-25.248 0-46.752-8.864-64.512-26.624s-26.624-39.264-26.624-64.512v-621.568c0-24.576 8.864-46.080 26.624-64.512s39.264-27.648 64.512-27.648h316.864c-4.032-8.992-33.344-72.512-58.080-72.512h-111.328c-5.472 0.672-9.888-1.024-13.312-5.12s-5.12-8.544-5.12-13.312v-36.864c0-4.096 1.696-8.192 5.12-12.288s7.84-6.144 13.312-6.144h547.84c5.472 0.672 9.888 2.72 13.312 6.144s5.12 7.52 5.12 12.288v36.864c0 5.472-1.696 9.888-5.12 13.312s-7.84 5.12-13.312 5.12h-112c-25.952 0-54.24 63.52-58.112 72.512h316.544c25.248 0.672 46.752 9.888 64.512 27.648s26.624 39.264 26.624 64.512v621.568c0.672 25.248-8.192 46.752-26.624 64.512zM951.616 357.28c-0.672-5.472-2.72-9.888-6.144-13.312s-7.52-5.12-12.288-5.12h-841.728c-4.096 0-8.192 1.696-12.288 5.12s-6.144 7.84-6.144 13.312v475.136c0.672 4.096 2.72 8.192 6.144 12.288s7.52 6.144 12.288 6.144h841.728c4.096-0.672 8.192-2.72 12.288-6.144s6.144-7.52 6.144-12.288v-475.136z" />
<glyph unicode="&#xe908;" glyph-name="uni32" horiz-adv-x="1025" d="M992.672 192v576c0 35.2-28.8 64-64 64h-832.672c-35.2 0-64-28.8-64-64v-576h-32v-64c0-35.2 28.8-64 64-64h896.672c35.2 0 64 28.8 64 64v64h-32zM112.32 752h800v-480h-800v480zM624.32 112h-224c-8.8 0-16 7.2-16 16s7.2 16 16 16h224c8.8 0 16-7.2 16-16s-7.168-16-16-16z" />
<glyph unicode="&#xe909;" glyph-name="uni33" horiz-adv-x="1025" d="M736.352 960h-448c-35.2 0-64-28.8-64-64v-896c0-35.2 28.8-64 64-64h448c35.2 0 64 28.8 64 64v896c0 35.2-28.8 64-64 64zM416.352 896h192v-32h-192v32zM512.352-32c-26.496 0-48 21.504-48 48s21.504 48 48 48c26.496 0 48-21.504 48-48s-21.504-48-48-48zM736.352 96h-448v704h448v-704z" />
<glyph unicode="&#xe90a;" glyph-name="uni34" horiz-adv-x="1025" d="M960.352 736h-896c-35.2 0-64-28.8-64-64v-448c0-35.2 28.8-64 64-64h896c35.2 0 64 28.8 64 64v448c0 35.2-28.8 64-64 64zM96.352 352h-32v192h32v-192zM864.352 224h-704v448h704v-448zM944.352 400c-26.496 0-48 21.504-48 48s21.504 48 48 48 48-21.504 48-48c0-26.496-21.504-48-48-48z" />
<glyph unicode="&#xe90b;" glyph-name="uni35" horiz-adv-x="1025" d="M791.616 960.352c57.6 0 104.736-43.2 104.736-96v-832.672c0-52.8-47.136-96-104.736-96h-558.56c-57.6 0-104.736 43.2-104.736 96v832.672c0 52.8 47.136 96 104.736 96h558.56zM224.352 863.648v-832h576v832h-576z" />
<glyph unicode="&#xe90c;" glyph-name="uni36" horiz-adv-x="1025" d="M1024.672 168.736c0-57.6-43.2-104.736-96-104.736h-832.672c-52.8 0-96 47.136-96 104.736v558.528c0 57.6 43.2 104.736 96 104.736h832.672c52.8 0 96-47.136 96-104.736v-558.528zM928 736h-832v-576h832v576z" />
<glyph unicode="&#xe90d;" glyph-name="uni3A" horiz-adv-x="364" d="M328.652 448q0-14.336-10.24-25.6l-256-256q-11.264-11.264-25.6-11.264t-25.6 11.264-11.264 25.6v512q0 15.36 11.264 25.6t25.6 11.264 25.6-11.264l256-256q10.24-10.24 10.24-25.6z" />
<glyph unicode="&#xe90e;" glyph-name="uni3B" horiz-adv-x="584" d="M584.5 264.704q0-14.336-10.24-25.6t-25.6-10.24h-512q-15.36 0-25.6 10.24t-11.264 25.6 11.264 26.624l256 256q10.24 10.24 25.6 10.24t25.6-10.24l256-256q10.24-11.264 10.24-26.624z" />
<glyph unicode="&#xe90f;" glyph-name="uni3C" horiz-adv-x="348" d="M247.808 730.624q14.336 16.384 39.936 16.384t41.984-16.384q38.912-36.864 0-81.92l-190.464-200.704 190.464-198.656q38.912-45.056 0-81.92-16.384-16.384-40.96-16.384t-40.96 16.384l-231.424 241.664q-16.384 16.384-16.384 38.912 0 24.576 16.384 40.96 210.944 219.136 231.424 241.664z" />
<glyph unicode="&#xe910;" glyph-name="uni3E" horiz-adv-x="348" d="M100.352 730.624l231.424-241.664q16.384-16.384 16.384-40.96 0-22.528-16.384-38.912l-231.424-241.664q-16.384-16.384-40.96-16.384t-40.96 16.384q-36.864 36.864 0 81.92l190.464 198.656-190.464 200.704q-36.864 45.056 0 81.92 16.384 16.384 41.984 16.384t39.936-16.384z" />
<glyph unicode="&#xe911;" glyph-name="uni3F" d="M951.296 411.136q-87.040 135.168-218.112 201.728 34.816-59.392 34.816-128 0-106.496-74.752-181.248t-181.248-74.752-181.248 74.752-74.752 181.248q0 68.608 34.816 128-131.072-66.56-218.112-201.728 76.8-116.736 191.488-186.368t247.808-69.632 247.808 69.632 191.488 186.368zM539.648 631.296q0 11.264-8.192 19.456t-19.456 7.168q-71.68 0-122.88-51.2t-51.2-121.856q0-12.288 8.192-19.456t19.456-8.192 19.456 8.192 8.192 19.456q0 49.152 34.816 83.968t83.968 34.816q11.264 0 19.456 8.192t8.192 19.456zM1024 411.136q0-19.456-11.264-38.912-79.872-132.096-215.040-210.944t-285.696-78.848-285.696 78.848-215.040 210.944q-11.264 19.456-11.264 38.912t11.264 39.936q79.872 131.072 215.040 209.92t285.696 79.872 285.696-79.872 215.040-209.92q11.264-20.48 11.264-39.936z" />
<glyph unicode="&#xe912;" glyph-name="uni41" d="M903.424 760.576l-142.88 142.848c-31.072 31.136-92.544 56.576-136.544 56.576h-480c-44 0-80-36-80-112v-864c0-12 36-48 80-48h736c44 0 80 36 80 80v608c0 44-25.472 105.472-56.576 136.576zM704 867.456c4.352-3.040 8.192-6.144 11.328-9.28l142.848-142.848c3.136-3.136 6.24-6.976 9.28-11.328h-163.456v163.456zM128 880c0 8.672 7.328 16 16 16h480c4.832 0 10.24-0.608 16-1.696v-254.304h254.304c1.088-5.76 1.696-11.168 1.696-16v-48h-768v304zM880 0h-736c-8.672 0-16 7.328-16 16v112h768v-112c0-8.672-7.328-16-16-16zM876.928 376.224v-57.248h-111.328v-116.864h-67.904v301.152h198.624v-57.28h-130.72v-69.76h111.328zM627.456 354.048c0-25.92-3.456-48.384-10.4-67.488s-16.64-34.848-29.088-47.296c-12.48-12.48-27.328-21.792-44.576-27.936s-36.352-9.248-57.28-9.248h-85.472v301.184h81.76c21.856 0 41.728-2.912 59.584-8.768s33.12-14.848 45.728-27.040c12.64-12.16 22.4-27.648 29.344-46.432s10.4-41.088 10.4-66.976zM535.776 428.192c-6.944 7.232-15.232 12.384-24.96 15.488-9.696 3.072-20.416 4.608-32.096 4.608h-9.696v-191.232h9.696c11.712 0 22.4 1.696 32.096 5.088s18.016 8.864 24.96 16.416c6.944 7.552 12.32 17.472 16.16 29.792s5.76 27.552 5.76 45.728c0 17.856-1.92 32.864-5.76 45.024s-9.248 21.856-16.16 29.088zM355.424 406.272c0-17.6-3.2-32.8-9.472-45.728-6.304-12.96-14.848-23.552-25.632-31.872-10.784-8.352-23.264-14.464-37.408-18.464-14.176-4-29.248-6.016-45.28-6.016h-42.080v-102.048h-67.872v301.152h109.952c16.32 0 31.648-1.632 45.952-4.864s26.784-8.608 37.408-16.16c10.624-7.552 19.008-17.568 25.184-30.016 6.176-12.512 9.248-27.84 9.248-45.984zM233.472 449.248h-37.92v-91.008l37.92-0.032c36.64 0 54.976 16 54.976 48.096 0 15.712-4.608 26.784-13.856 33.248s-22.944 9.696-41.12 9.696z" />
<glyph unicode="&#xe913;" glyph-name="uni42" horiz-adv-x="802" d="M292.506 539.136v-328.704q0-8.192-5.12-13.312t-13.312-5.12h-36.864q-8.192 0-13.312 5.12t-5.12 13.312v328.704q0 8.192 5.12 13.312t13.312 5.12h36.864q8.192 0 13.312-5.12t5.12-13.312zM438.938 539.136v-328.704q0-8.192-5.12-13.312t-13.312-5.12h-36.864q-8.192 0-13.312 5.12t-5.12 13.312v328.704q0 8.192 5.12 13.312t13.312 5.12h36.864q8.192 0 13.312-5.12t5.12-13.312zM584.346 539.136v-328.704q0-8.192-5.12-13.312t-12.288-5.12h-36.864q-8.192 0-13.312 5.12t-5.12 13.312v328.704q0 8.192 5.12 13.312t13.312 5.12h36.864q7.168 0 12.288-5.12t5.12-13.312zM658.074 125.44v541.696h-512v-541.696q0-12.288 4.096-22.528t8.192-15.36 6.144-5.12h475.136q2.048 0 6.144 5.12t8.192 15.36 4.096 22.528zM274.074 740.864h256l-27.648 66.56q-4.096 5.12-9.216 6.144h-181.248q-6.144-1.024-10.24-6.144zM804.506 722.432v-36.864q0-8.192-5.12-13.312t-13.312-5.12h-55.296v-541.696q0-47.104-26.624-81.92t-64.512-34.816h-475.136q-37.888 0-64.512 33.792t-27.648 80.896v543.744h-54.272q-8.192 0-13.312 5.12t-5.12 13.312v36.864q0 8.192 5.12 13.312t13.312 5.12h176.128l39.936 95.232q9.216 21.504 31.744 35.84t45.056 15.36h182.272q22.528 0 45.056-15.36t30.72-35.84l39.936-95.232h177.152q8.192 0 13.312-5.12t5.12-13.312z" />
<glyph unicode="&#xe914;" glyph-name="uni43" horiz-adv-x="1026" d="M972.8 821.76q23.552 0 39.936-18.432t14.336-43.008l-54.272-373.76q-2.048-18.432-17.408-31.744t-34.816-12.288h-604.16l9.216-54.272h540.672q22.528 0 37.888-16.384t16.384-36.864-16.384-37.888-37.888-15.36h-585.728q-20.48 0-35.84 13.312t-16.384 30.72l-100.352 595.968h-73.728q-22.528 0-37.888 15.36t-16.384 37.888 16.384 36.864 37.888 16.384h118.784q19.456 0 34.816-12.288t17.408-32.768l11.264-61.44h736.256zM911.36 714.24h-204.8v-105.472h189.44zM653.312 714.24h-160.768v-105.472h160.768v105.472zM653.312 554.496h-160.768v-106.496h160.768v106.496zM440.32 714.24h-186.368l18.432-107.52q3.072 2.048 8.192 2.048h159.744v105.472zM280.576 554.496l17.408-106.496h142.336v106.496h-159.744zM706.56 448h167.936l14.336 106.496h-182.272v-106.496zM280.576 48.64q0 79.872 78.848 79.872 80.896 0 80.896-79.872t-80.896-79.872q-78.848 0-78.848 79.872zM760.832 48.64q0 79.872 78.848 79.872 80.896 0 80.896-79.872t-80.896-79.872q-78.848 0-78.848 79.872z" />
<glyph unicode="&#xe915;" glyph-name="uni46" d="M1024 562.95l-353.78 51.408-158.22 320.582-158.216-320.582-353.784-51.408 256-249.538-60.432-352.352 316.432 166.358 316.432-166.358-60.434 352.352 256.002 249.538z" />
<glyph unicode="&#xe916;" glyph-name="uni49" d="M219.136 155.136q0-45.056-31.744-77.824t-77.824-31.744-77.824 31.744-31.744 77.824 31.744 77.824 77.824 31.744 77.824-31.744 31.744-77.824zM219.136 448q0-46.080-31.744-77.824t-77.824-31.744-77.824 31.744-31.744 77.824 31.744 77.824 77.824 31.744 77.824-31.744 31.744-77.824zM1024 210.432v-109.568q0-7.168-5.12-13.312t-13.312-5.12h-694.272q-8.192 0-13.312 5.12t-5.12 13.312v109.568q0 7.168 5.12 12.288t13.312 6.144h694.272q7.168 0 13.312-6.144t5.12-12.288zM219.136 740.864q0-46.080-31.744-77.824t-77.824-31.744-77.824 31.744-31.744 77.824 31.744 77.824 77.824 31.744 77.824-31.744 31.744-77.824zM1024 503.296v-110.592q0-7.168-5.12-12.288t-13.312-5.12h-694.272q-8.192 0-13.312 5.12t-5.12 12.288v110.592q0 7.168 5.12 12.288t13.312 5.12h694.272q7.168 0 13.312-5.12t5.12-12.288zM1024 795.136v-109.568q0-7.168-5.12-12.288t-13.312-6.144h-694.272q-8.192 0-13.312 6.144t-5.12 12.288v109.568q0 8.192 5.12 13.312t13.312 5.12h694.272q7.168 0 13.312-5.12t5.12-13.312z" />
<glyph unicode="&#xe917;" glyph-name="uni4D" horiz-adv-x="906" d="M593.92 402.944l264.192-273.408h-807.936l265.216 270.336 138.24-130.048zM64.512 766.464h778.24l-389.12-370.688zM644.096 450.048l263.168 247.808v-520.192zM0 177.664v520.192l265.216-248.832z" />
<glyph unicode="&#xe918;" glyph-name="uni50" horiz-adv-x="962" d="M886.784 667.136c40.96 0 76.8-35.84 76.8-79.872v-374.784c0-43.008-35.84-78.848-76.8-78.848h-77.824l34.816-156.672h-707.584l27.648 156.672h-83.968c-46.080 0-79.872 35.84-79.872 78.848v374.784c0 44.032 33.792 79.872 79.872 79.872h98.304v119.808h34.816v132.096h539.648v-132.096h34.816v-119.808h99.328zM248.832 870.912v-299.008h467.968v299.008h-467.968zM133.12 472.576c30.72 0 56.32 24.576 56.32 55.296 0 28.672-25.6 54.272-56.32 54.272-29.696 0-55.296-25.6-55.296-54.272 0-30.72 25.6-55.296 55.296-55.296zM197.632 24.064h580.608l-48.128 247.808h-495.616zM455.68 139.776h-142.336v35.84h142.336v-35.84zM658.432 139.776h-142.336v35.84h142.336v-35.84z" />
<glyph unicode="&#xe919;" glyph-name="uni52" horiz-adv-x="802" d="M218.778 192q0-46.080-31.744-77.824t-77.824-31.744-77.824 31.744-31.744 77.824 31.744 77.824 77.824 31.744 77.824-31.744 31.744-77.824zM511.642 121.344q1.024-15.36-9.216-26.624-11.264-12.288-27.648-12.288h-76.8q-14.336 0-24.576 9.216t-11.264 23.552q-12.288 131.072-105.472 224.256t-224.256 105.472q-14.336 1.024-23.552 11.264t-9.216 24.576v76.8q0 16.384 12.288 26.624 9.216 10.24 24.576 10.24h3.072q91.136-7.168 174.080-46.080t148.48-103.424q64.512-64.512 103.424-148.48t46.080-175.104zM804.506 120.32q1.024-15.36-10.24-26.624-10.24-11.264-26.624-11.264h-81.92q-14.336 0-25.6 10.24t-11.264 23.552q-6.144 122.88-57.344 233.472t-132.096 192.512-192.512 132.096-232.448 58.368q-14.336 0-24.576 11.264t-10.24 24.576v81.92q0 15.36 11.264 26.624 10.24 10.24 25.6 10.24h1.024q150.528-8.192 286.72-68.608t243.712-167.936q106.496-106.496 167.936-243.712t68.608-286.72z" />
<glyph unicode="&#xe91a;" glyph-name="uni53" d="M993.739 104.201l-213.99 212.347c41.476 64.862 65.525 141.72 65.525 224.057 0 231.257-189.591 419.396-422.638 419.396-233.041 0-422.635-188.139-422.635-419.396s189.588-419.396 422.635-419.396c78.851 0 152.719 21.56 215.964 59.024l215.877-214.228c92.112-91.403 231.456 46.712 139.263 138.197zM131.050 540.604c0 159.551 130.798 289.359 291.586 289.359s291.595-129.805 291.595-289.359-130.805-289.356-291.595-289.356c-160.786 0-291.586 129.806-291.586 289.356z" />
<glyph unicode="&#xe91b;" glyph-name="uni57" d="M639.776 484.096h44.224l-51.008-226.176-66.336 318.016h-106.56l-77.12-318.016-57.792 318.016h-111.392l113.088-511.872h108.832l76.288 302.688 68.256-302.688h100.352l129.632 511.872h-170.464zM903.424 760.576l-142.88 142.848c-31.072 31.136-92.544 56.576-136.544 56.576h-480c-44 0-80-36-80-80v-864c0-44 36-80 80-80h736c44 0 80 36 80 80v608c0 44-25.472 105.472-56.576 136.576zM858.176 715.328c3.136-3.136 6.24-6.976 9.28-11.328h-163.456v163.456c4.352-3.040 8.192-6.144 11.328-9.28l142.848-142.848zM896 16c0-8.672-7.328-16-16-16h-736c-8.672 0-16 7.328-16 16v864c0 8.672 7.328 16 16 16h480c4.832 0 10.24-0.608 16-1.696v-254.304h254.304c1.088-5.76 1.696-11.168 1.696-16v-608z" />
<glyph unicode="&#xe91c;" glyph-name="uni58" d="M743.040 576h-135.296l-95.744-141.024-95.744 141.024h-135.296l162.176-242.464-182.976-269.536h262.24v91.584h-60.544l50.144 74.976 111.392-166.56h140.448l-182.976 269.536zM903.424 760.576l-142.88 142.848c-31.072 31.136-92.544 56.576-136.544 56.576h-480c-44 0-80-36-80-80v-864c0-44 36-80 80-80h736c44 0 80 36 80 80v608c0 44-25.472 105.472-56.576 136.576zM858.176 715.328c3.136-3.136 6.24-6.976 9.28-11.328h-163.456v163.456c4.352-3.040 8.192-6.144 11.328-9.28l142.848-142.848zM896 16c0-8.672-7.328-16-16-16h-736c-8.672 0-16 7.328-16 16v864c0 8.672 7.328 16 16 16h480c4.832 0 10.24-0.608 16-1.696v-254.304h254.304c1.088-5.76 1.696-11.168 1.696-16v-608z" />
<glyph unicode="&#xe91d;" glyph-name="uni5E" horiz-adv-x="592" d="M577.536 376.32q16.384-16.384 16.384-41.984t-16.384-41.984q-38.912-38.912-79.872 0l-200.704 192.512-200.704-192.512q-40.96-38.912-79.872 0-16.384 16.384-16.384 41.984t16.384 41.984l239.616 229.376q16.384 16.384 40.96 16.384t40.96-16.384z" />
<glyph unicode="&#xe91e;" glyph-name="uni63" d="M320 576h128v-128h-128zM512 576h128v-128h-128zM704 576h128v-128h-128zM128 192h128v-128h-128zM320 192h128v-128h-128zM512 192h128v-128h-128zM320 384h128v-128h-128zM512 384h128v-128h-128zM704 384h128v-128h-128zM128 384h128v-128h-128zM832 960v-64h-128v64h-448v-64h-128v64h-128v-1024h960v1024h-128zM896 0h-832v704h832v-704z" />
<glyph unicode="&#xe91f;" glyph-name="uni64" d="M903.432 760.57l-142.864 142.862c-31.112 31.112-92.568 56.568-136.568 56.568h-480c-44 0-80-36-80-80v-864c0-44 36-80 80-80h736c44 0 80 36 80 80v608c0 44-25.456 105.458-56.568 136.57zM858.178 715.314c3.13-3.13 6.25-6.974 9.28-11.314h-163.458v163.456c4.34-3.030 8.184-6.15 11.314-9.28l142.864-142.862zM896 16c0-8.672-7.328-16-16-16h-736c-8.672 0-16 7.328-16 16v864c0 8.672 7.328 16 16 16h480c4.832 0 10.254-0.61 16-1.704v-254.296h254.296c1.094-5.746 1.704-11.166 1.704-16v-608z" />
<glyph unicode="&#xe920;" glyph-name="uni65" horiz-adv-x="768" d="M0 64v768h320.512v-768h-320.512zM448.512 64v768h319.488v-768h-319.488z" />
<glyph unicode="&#xe921;" glyph-name="uni66" horiz-adv-x="876" d="M746.444 435.712l13.312 124.928h-112.64v62.464q0 27.648 8.192 38.912t40.96 11.264h63.488v124.928h-100.352q-87.040 0-124.928-40.96t-36.864-121.856v-74.752h-75.776v-124.928h75.776v-363.52h149.504v363.52h99.328zM877.516 722.432v-548.864q0-67.584-48.128-115.712t-116.736-49.152h-547.84q-68.608 0-116.736 49.152t-48.128 115.712v548.864q0 67.584 48.128 115.712t116.736 49.152h547.84q68.608 0 116.736-49.152t48.128-115.712z" />
<glyph unicode="&#xe922;" glyph-name="uni67" horiz-adv-x="446" d="M0 64v768h128v-352.256l320.512 320.512v-704.512l-320.512 320.512v-352.256h-128z" />
<glyph unicode="&#xe923;" glyph-name="uni68" horiz-adv-x="446" d="M0 95.744v704.512l320.512-320.512v352.256h128v-768h-128v352.256z" />
<glyph unicode="&#xe924;" glyph-name="uni69" d="M219.136 283.136v-35.84q0-8.192-5.12-13.312t-13.312-5.12h-35.84q-7.168 0-13.312 5.12t-5.12 13.312v35.84q0 8.192 5.12 13.312t13.312 5.12h35.84q8.192 0 13.312-5.12t5.12-13.312zM219.136 429.568v-36.864q0-7.168-5.12-12.288t-13.312-5.12h-35.84q-7.168 0-13.312 5.12t-5.12 12.288v36.864q0 7.168 5.12 13.312t13.312 5.12h35.84q8.192 0 13.312-5.12t5.12-13.312zM219.136 576v-36.864q0-7.168-5.12-12.288t-13.312-6.144h-35.84q-7.168 0-13.312 6.144t-5.12 12.288v36.864q0 7.168 5.12 13.312t13.312 5.12h35.84q8.192 0 13.312-5.12t5.12-13.312zM877.568 283.136v-35.84q0-8.192-5.12-13.312t-13.312-5.12h-547.84q-8.192 0-13.312 5.12t-5.12 13.312v35.84q0 8.192 5.12 13.312t13.312 5.12h547.84q8.192 0 13.312-5.12t5.12-13.312zM877.568 429.568v-36.864q0-7.168-5.12-12.288t-13.312-5.12h-547.84q-8.192 0-13.312 5.12t-5.12 12.288v36.864q0 7.168 5.12 13.312t13.312 5.12h547.84q8.192 0 13.312-5.12t5.12-13.312zM877.568 576v-36.864q0-7.168-5.12-12.288t-13.312-6.144h-547.84q-8.192 0-13.312 6.144t-5.12 12.288v36.864q0 7.168 5.12 13.312t13.312 5.12h547.84q8.192 0 13.312-5.12t5.12-13.312zM951.296 173.568v475.136q0 8.192-6.144 13.312t-12.288 5.12h-841.728q-7.168 0-12.288-5.12t-6.144-13.312v-475.136q0-7.168 6.144-12.288t12.288-6.144h841.728q7.168 0 12.288 6.144t6.144 12.288zM1024 795.136v-621.568q0-37.888-26.624-64.512t-64.512-26.624h-841.728q-36.864 0-64.512 26.624t-26.624 64.512v621.568q0 37.888 26.624 64.512t64.512 27.648h841.728q37.888 0 64.512-27.648t26.624-64.512z" />
<glyph unicode="&#xe925;" glyph-name="uni6A" horiz-adv-x="670" d="M0 448l352.256 352.256v-320.512l319.488 320.512v-704.512l-319.488 320.512v-320.512z" />
<glyph unicode="&#xe926;" glyph-name="uni6B" horiz-adv-x="670" d="M0 95.744v704.512l320.512-320.512v320.512l351.232-352.256-351.232-352.256v320.512z" />
<glyph unicode="&#xe927;" glyph-name="uni6C" d="M804.864 429.568v-182.272q0-68.608-48.128-116.736t-116.736-48.128h-475.136q-68.608 0-116.736 48.128t-48.128 116.736v475.136q0 67.584 48.128 115.712t116.736 49.152h402.432q7.168 0 12.288-5.12t5.12-13.312v-36.864q0-8.192-5.12-13.312t-12.288-5.12h-402.432q-37.888 0-64.512-26.624t-27.648-64.512v-475.136q0-37.888 27.648-64.512t64.512-27.648h475.136q37.888 0 64.512 27.648t26.624 64.512v182.272q0 8.192 5.12 13.312t13.312 5.12h36.864q8.192 0 13.312-5.12t5.12-13.312zM1024 923.136v-291.84q0-15.36-11.264-26.624t-25.6-10.24-25.6 10.24l-100.352 101.376-372.736-372.736q-5.12-6.144-13.312-6.144t-13.312 6.144l-64.512 64.512q-6.144 6.144-6.144 13.312t6.144 13.312l372.736 372.736-101.376 100.352q-10.24 11.264-10.24 25.6t10.24 25.6 26.624 11.264h291.84q15.36 0 25.6-11.264t11.264-25.6z" />
<glyph unicode="&#xe928;" glyph-name="uni6D" d="M0 521.094h1024v-146.286h-1024v146.286zM0 155.281h1024v-146.088h-1024v146.088zM0 886.808h1024v-146.286h-1024v146.286z" />
<glyph unicode="&#xe929;" glyph-name="uni6F" d="M0 960l1024-1024h-1024z" />
<glyph unicode="&#xe92a;" glyph-name="uni70" d="M897.984 821.76c-14.496 45.376-50.688 89.312-108.608 131.776-8.704 6.752-15.456 8.192-20.288 4.352-4.832-3.872-5.792-9.184-2.912-15.936 0.96-2.912 3.616-16.16 7.968-39.84 4.352-23.648 7.968-39.84 10.848-48.512 11.584-48.256-6.272-76.736-53.568-85.44-31.84-4.8-54.272-1.664-67.328 9.44-13.024 11.104-18.592 22.432-16.64 34.048-16.416 49.248-24.608 79.648-24.608 91.232-0.96 4.832-5.056 7.968-12.32 9.408-7.232 1.44-12.32-2.176-15.2-10.848-34.752-88.832-41.504-149.632-20.288-182.464 7.712-13.504 20.512-28.736 38.368-45.6 17.856-16.896 32.096-34.048 42.72-51.424s15.936-37.664 15.936-60.832l1.44-99.936-10.144-497.408c-0.96-20.288 8.192-29.44 27.52-27.52h66.624c16.416 0.96 24.608 11.104 24.608 30.4l-2.912 487.264 2.912 115.84c0 42.464 16.416 74.336 49.248 95.584 62.752 37.664 84.96 89.824 66.624 156.416zM398.432 800l-48 160h-96l-48-160h48v-384h-16c-17.6 0-32-14.4-32-32s7.2-32 16-32c8.8 0 16-14.4 16-32s-7.2-32-16-32c-8.8 0-16-14.4-16-32v-288c0-17.6 14.4-32 32-32h128c17.6 0 32 14.4 32 32v288c0 17.6-7.2 32-16 32s-16 14.4-16 32 7.2 32 16 32c8.8 0 16 14.4 16 32s-14.4 32-32 32h-16v384h48z" />
<glyph unicode="&#xe92b;" glyph-name="uni71" horiz-adv-x="640" d="M0 64v768l640-384z" />
<glyph unicode="&#xe92c;" glyph-name="uni73" d="M419.168 274.464l-69.28-15.392c-7.68 9.888-16.416 18.72-25.952 26.432l16.608 68.992-58.848 24.992-38.080-59.872c-12.16 1.536-24.576 1.664-37.024 0.32l-37.024 60.512-59.264-23.936 15.392-69.28c-9.888-7.68-18.72-16.384-26.432-25.952l-68.992 16.608-24.96-58.848 59.872-38.080c-1.536-12.16-1.664-24.608-0.32-37.024l-60.512-37.024 23.936-59.264 69.28 15.392c7.68-9.888 16.416-18.72 25.952-26.432l-16.608-68.992 58.848-24.992 38.080 59.872c12.16-1.536 24.576-1.664 37.024-0.32l37.024-60.512 59.264 23.936-15.392 69.28c9.888 7.68 18.72 16.416 26.432 25.952l68.992-16.608 24.96 58.848-59.872 38.080c1.536 12.16 1.664 24.608 0.32 37.024l60.544 37.024-23.968 59.264zM247.648 101.792c-32.736-13.216-69.984 2.592-83.2 35.328s2.592 69.984 35.328 83.2c32.736 13.216 69.984-2.592 83.2-35.328s-2.592-69.984-35.328-83.2zM960 608l56.64 42.496c-3.296 16.736-7.872 32.992-13.248 48.864l-70.24 8.928-32 55.424 27.68 64.8c-11.168 12.768-23.168 24.768-35.904 35.936l-65.184-27.328-55.424 32-8.448 70.080c-15.872 5.408-32.096 10.048-48.832 13.344l-43.040-56.544h-64l-42.496 56.64c-16.736-3.296-32.992-7.872-48.864-13.248l-8.928-70.24-55.424-32-64.8 27.68c-12.768-11.168-24.768-23.168-35.936-35.904l27.328-65.184-32-55.424-70.080-8.448c-5.408-15.872-10.048-32.096-13.344-48.832l56.544-43.040v-64l-56.64-42.496c3.296-16.736 7.872-32.992 13.248-48.864l70.24-8.928 32-55.424-27.68-64.8c11.168-12.768 23.168-24.768 35.904-35.936l65.184 27.328 55.424-32 8.448-70.080c15.872-5.408 32.096-10.048 48.832-13.344l43.040 56.544h64l42.496-56.64c16.736 3.296 32.992 7.872 48.864 13.248l8.928 70.24 55.424 32 64.8-27.68c12.768 11.168 24.768 23.168 35.936 35.904l-27.328 65.184 32 55.424 70.080 8.448c5.408 15.872 10.048 32.096 13.344 48.832l-56.544 43.040v64zM640 432c-79.52 0-144 64.48-144 144s64.48 144 144 144 144-64.48 144-144-64.48-144-144-144z" />
<glyph unicode="&#xe92d;" glyph-name="uni74" horiz-adv-x="950" d="M925.388 726.528q-37.888-55.296-92.16-95.232 0-8.192 0-23.552 0-74.752-21.504-148.48t-65.536-142.336-105.472-119.808-147.456-83.968-185.344-30.72q-154.624 0-282.624 82.944 19.456-3.072 44.032-3.072 129.024 0 229.376 78.848-60.416 2.048-107.52 36.864t-65.536 91.136q19.456-2.048 34.816-2.048 24.576 0 49.152 6.144-64.512 13.312-106.496 63.488t-41.984 117.76v2.048q38.912-21.504 83.968-23.552-37.888 25.6-60.416 65.536t-22.528 88.064q0 50.176 25.6 93.184 69.632-84.992 167.936-136.192t212.992-56.32q-5.12 21.504-5.12 41.984 0 76.8 54.272 130.048t130.048 54.272q80.896 0 135.168-58.368 62.464 12.288 116.736 45.056-20.48-65.536-80.896-102.4 53.248 6.144 106.496 28.672z" />
<glyph unicode="&#xe92e;" glyph-name="uni75" horiz-adv-x="768" d="M0 95.744v704.512l320.512-320.512v320.512l319.488-320.512v352.256h128v-768h-128v352.256l-319.488-320.512v320.512z" />
<glyph unicode="&#xe92f;" glyph-name="uni76" horiz-adv-x="592" d="M577.536 521.728l-239.616-229.376q-18.432-18.432-40.96-18.432t-40.96 18.432l-239.616 229.376q-16.384 16.384-16.384 41.984t16.384 41.984q38.912 38.912 79.872 0l200.704-192.512 200.704 192.512q40.96 38.912 79.872 0 16.384-16.384 16.384-41.984t-16.384-41.984z" />
<glyph unicode="&#xe930;" glyph-name="uni77" horiz-adv-x="768" d="M0 64v768h768v-768h-768z" />
<glyph unicode="&#xe931;" glyph-name="uni78" d="M615.362 448l408.217-408.217-103.362-103.362-408.217 408.217-408.217-408.217-103.362 103.362 408.217 408.217-408.217 408.217 103.362 103.362 408.217-408.217 408.217 408.217 103.362-103.362z" />
<glyph unicode="&#xe932;" glyph-name="uni7A" horiz-adv-x="768" d="M0 64v768h128v-352.256l320.512 320.512v-320.512l319.488 320.512v-704.512l-319.488 320.512v-320.512l-320.512 320.512v-352.256h-128z" />
<glyph unicode="&#xe933;" glyph-name="uniE4" horiz-adv-x="836" d="M-0.204 379.392q0 25.6 18.432 44.032t45.056 18.432 43.008-18.432l249.856-248.832v657.408q0 25.6 18.432 44.032t44.032 18.432 44.032-18.432 18.432-44.032v-657.408l248.832 248.832q18.432 18.432 44.032 18.432t44.032-18.432 18.432-44.032-18.432-45.056l-399.36-399.36-400.384 399.36q-18.432 20.48-18.432 45.056z" />
<glyph unicode="&#xe934;" glyph-name="uniF6" horiz-adv-x="960" d="M0 451.072l399.36 400.384q19.456 18.432 45.056 18.432t44.032-18.432 18.432-45.056-18.432-44.032l-248.832-248.832h657.408q25.6 0 44.032-18.432t18.432-44.032-18.432-44.032-44.032-18.432h-657.408l248.832-248.832q18.432-18.432 18.432-45.056t-18.432-44.032-44.032-18.432-45.056 18.432z" />
<glyph unicode="&#xe935;" glyph-name="uniFC" horiz-adv-x="836" d="M-0.204 452.096q0 26.624 18.432 45.056l400.384 399.36 399.36-399.36q18.432-18.432 18.432-45.056t-18.432-44.032q-18.432-18.432-44.032-18.432t-44.032 18.432l-248.832 248.832v-657.408q0-25.6-18.432-44.032t-44.032-18.432q-26.624 0-45.056 18.432t-17.408 44.032v657.408l-249.856-248.832q-18.432-18.432-44.032-18.432t-44.032 18.432q-18.432 17.408-18.432 44.032z" />
</font>
</defs>
</svg>
